TORRENTS45.XYZ

Скачать Уральские пельмени. Нельзя в иллюминаторе (2016.05.20) DVB [H.264]


Уральские пельмени. Нельзя в иллюминаторе (2016.05.20) DVB [H.264]
Телекомпания: СТС
Жанр: Юмор
В ролях:
Дмитрий Брекоткин, Сергей Ершов, Сергей Исаев, Сергей Калугин, Вячеслав Мясников, Александр Попов, Андрей Рожков, Дмитрий Соколов, Максим Ярица, Юля Михалкова и др.

Описание:
Весёлые парни в мандариновых рубашках не дадут соскучиться и подарят отличное настроение всей семье. У юмора «Уральских пельменей» нет возрастных ограничений, они избегают «шуток ниже пояса» и на их концертах пятилетние дети смеются рядом с 50-ти летними взрослыми. Новое комедийное шоу включает в себя как самостоятельные сценические истории, так и импровизации с залом, а также смешные сценки со звёздами, которые пришли посмотреть на любимую команду и неожиданно для себя оказались на сцене.


Возраст: 12+ (зрителям, достигшим 12 лет)
Рейтинг MPAA: PG (рекомендуется присутствие родителей)


Релиз от:
Продолжительность: 01:10:38
Качество видео: DVB
Субтитры: Отсутствуют

Видео: AVC, 720x576 (4:3), 25.000 fps, 3 087 Kbps (0.298 bit/pixel)
Аудио: MP2, 48.0 KHz, 2 ch, 256 Kbps, CBR

Mediainfo:

Код:

Формат                                   : MPEG-TS
Размер файла                             : 1,74 Гбайт
Продолжительность                        : 1 ч. 10 м.
Режим общего битрейта                    : Переменный
Общий поток                              : 3519 Кбит/сек

Видео
Идентификатор                            : 1250 (0x4E2)
Идентификатор меню                       : 250 (0xFA)
Формат                                   : AVC
Формат/Информация                        : Advanced Video Codec
Профиль формата                          : High@L3
Параметр CABAC формата                   : Да
Параметр ReFrames формата                : 3 кадра
Идентификатор кодека                     : 27
Продолжительность                        : 1 ч. 10 м.
Битрейт                                  : 3087 Кбит/сек
Ширина                                   : 720 пикселей
Высота                                   : 576 пикселей
Соотношение сторон                       : 4:3
Частота кадров                           : 25,000 кадров/сек
Стандарт вещания                         : Component
Цветовое пространство                    : YUV
Субдискретизация насыщенности            : 4:2:0
Битовая глубина                          : 8 бит
Тип развёртки                            : Чересстрочная
Порядок развёртки                        : Верхнее поле первое
Бит/(Пиксели*Кадры)                      : 0.298
Размер потока                            : 1,52 Гбайт (88%)
Цветовой диапазон                        : Limited
Основные цвета                           : BT.601 PAL
Характеристики трансфера                 : BT.470 System B, BT.470 System G
Коэффициенты матрицы                     : BT.601

Аудио
Идентификатор                            : 2250 (0x8CA)
Идентификатор меню                       : 250 (0xFA)
Формат                                   : MPEG Audio
Версия формата                           : Version 1
Профиль формата                          : Layer 2
Идентификатор кодека                     : 3
Продолжительность                        : 1 ч. 10 м.
Вид битрейта                             : Постоянный
Битрейт                                  : 256 Кбит/сек
Каналы                                   : 2 канала
Частота                                  : 48,0 КГц
Метод сжатия                             : С потерями
Размер потока                            : 129 Мбайт (7%)
Язык                                     : English
 

Содержание:

Не пропусти новое шоу:
Они едят шашлыки из Большой Медведицы, и дёргают кометы за хвост. Они летают на Луну через Москву, потому что прямых ракет нет. Они готовы лететь на Марс 40 лет, чтобы не платить на Земле налоги. Они готовы лететь со скоростью света, ведь для них это единственный шанс помолодеть. Никто не знает, что их ждёт в космосе, потому что так далеко ещё никого не посылали. Они – звёздный десант, а Соколов – звёздный стройбат. Мечта всей их жизни – перекрасить чёрные дыры в оранжевые, ведь они – "Уральские Пельмени" с новой космической программой "Нельзя в иллюминаторе". Протрём звёздную пыль вместе!
Скриншоты:



Все одноименные релизы в Клубе
Детали торрента:
Название:Уральские пельмени. Нельзя в иллюминаторе (2016.05.20) DVB [H.264]
Дата добавления:20 Май 2016 18:07:18
Размер:1,74 GB
Раздают:2
Качают:0
Форум:ПостКВН

All rights reserved © 2015-2019