TORRENTS45.XYZ

Скачать Александр Кальянов - Золотые хиты. GOLDEN HITS. Лучшие песни (2007) [FLAC|Lossless|image + .cue] <Chanson>


Александр Кальянов. - Золотые хиты. GOLDEN HITS. Лучшие песни (2007)
Год: 2007
Жанр: Chanson
Издание: © <<MASTER SOUND RECORDS LTD>>,© А.КАЛЬЯНОВ- MS CD 725/07
Продолжительность: 01:09:55

Кодек: FLAC
Битрейт: Lossless
Тип рипа: image + .cue

Треклист:
01. Здравствуйте (3:07)
02. Кукушечка (3:50)
03. Возвращайтесь друзья (3:41)
04. Старое кафе (3:44)
05. Лови привет (2:57)
06. Путана (4:08)
07. Золотая осень (2:43)
08. Два по двести, Зоечка (3:16)
09. Просто знакомые (3:28)
10. Пляжи (3:11)
11. Терема (4:08)
12. По 100 грамм (2:31)
13. На трёхметровой кухне (3:39)
14. Таганка (3:14)
15. Голосок (2:52)
16. Свежий запах лип (5:04)
17. Вагончик (3:17)
18. Красивая женщина (3:58)
19. Безбилетный пассажир (4:04)
20. За всё приходится платить (3:03)

Отчёт EAC:

Код:

Exact Audio Copy V0.99 prebeta 5 from 4. May 2009

Отчёт EAC об извлечении, выполненном 20. мая 2016, 08:20

Александр Кальянов / Золотые хиты

Дисковод: Optiarc DVD RW AD-7190A   Adapter: 0  ID: 0

Режим чтения                 : Достоверность
Использование точного потока : Да
Отключение кэша аудио        : Да
Использование указателей C2  : Нет

Коррекция смещения при чтении                     : 6
Способность читать области Lead-in и Lead-out     : Нет
Заполнение пропущенных сэмплов тишиной            : Да
Удаление блоков с тишиной в начале и конце        : Нет
При вычислениях CRC использовались нулевые сэмплы : Да
Интерфейс                                         : Встроенный Win32-интерфейс для Win NT/2000

Выходной формат : Внутренние WAV-операции
Формат сэмплов  : 44.100 Гц; 16 бит; стерео

TOC извлечённого CD

     Трек |   Старт  | Длительность | Начальный сектор | Конечный сектор
    ---------------------------------------------------------------------
       1  |  0:00.00 |    3:07.28   |           0      |      14052
       2  |  3:07.28 |    3:50.36   |       14053      |      31338
       3  |  6:57.64 |    3:40.46   |       31339      |      47884
       4  | 10:38.35 |    3:44.22   |       47885      |      64706
       5  | 14:22.57 |    2:57.00   |       64707      |      77981
       6  | 17:19.57 |    4:07.47   |       77982      |      96553
       7  | 21:27.29 |    2:42.39   |       96554      |     108742
       8  | 24:09.68 |    3:15.59   |      108743      |     123426
       9  | 27:25.52 |    3:27.62   |      123427      |     139013
      10  | 30:53.39 |    3:11.29   |      139014      |     153367
      11  | 34:04.68 |    4:08.32   |      153368      |     171999
      12  | 38:13.25 |    2:30.62   |      172000      |     183311
      13  | 40:44.12 |    3:38.71   |      183312      |     199732
      14  | 44:23.08 |    3:13.45   |      199733      |     214252
      15  | 47:36.53 |    2:52.36   |      214253      |     227188
      16  | 50:29.14 |    5:03.54   |      227189      |     249967
      17  | 55:32.68 |    3:17.07   |      249968      |     264749
      18  | 58:50.00 |    3:58.30   |      264750      |     282629
      19  | 62:48.30 |    4:04.26   |      282630      |     300955
      20  | 66:52.56 |    3:02.53   |      300956      |     314658

Характеристики диапазона извлечения и сообщения об ошибках

Выбранный диапазон

     Имя файла D:\КАЛЬЯНОВ АЛЕКСАНДР © [Дискография]\КАЛЬЯНОВ АЛЕКСАНДР (с) 2007 [Золотые хиты.GOLDEN HITS]\Александр Кальянов - Золотые хиты.wav

     Пиковый уровень 98.8 %
     Качество диапазона 100.0 %
     CRC теста 3016B975
     CRC копии 3016B975
     Копирование... OK

Ошибок не произошло

AccurateRip: сводка

Трек  1  нет в базе данных
Трек  2  нет в базе данных
Трек  3  нет в базе данных
Трек  4  нет в базе данных
Трек  5  нет в базе данных
Трек  6  нет в базе данных
Трек  7  нет в базе данных
Трек  8  нет в базе данных
Трек  9  нет в базе данных
Трек 10  нет в базе данных
Трек 11  нет в базе данных
Трек 12  нет в базе данных
Трек 13  нет в базе данных
Трек 14  нет в базе данных
Трек 15  нет в базе данных
Трек 16  нет в базе данных
Трек 17  нет в базе данных
Трек 18  нет в базе данных
Трек 19  нет в базе данных
Трек 20  нет в базе данных

Ни одного трека нет в базе AccurateRip

Конец отчёта

Cue Sheet (.cue):

Код:

REM GENRE Chanson
REM DATE 2007
REM DISCID 1C106314
REM COMMENT "ExactAudioCopy v0.99pb5"
PERFORMER "Александр Кальянов"
TITLE "КАЛЬЯНОВ АЛЕКСАНДР (с) 2007 [Золотые хиты.GOLDEN HITS]"
FILE "Александр Кальянов - Золотые хиты.flac" WAVE
  TRACK 01 AUDIO
    TITLE "Здравствуйте - здравствуйте (И.Зубков - А.Шаганов)"
    PERFORMER "Александр Кальянов"
    INDEX 01 00:00:00
  TRACK 02 AUDIO
    TITLE "Кукушечка (Папа Радж)"
    PERFORMER "Александр Кальянов"
    INDEX 01 03:07:28
  TRACK 03 AUDIO
    TITLE "Возвращайтесь друзья (Музыка и слова А.Домничев)"
    PERFORMER "Александр Кальянов"
    INDEX 01 06:57:64
  TRACK 04 AUDIO
    TITLE "Старое кафе (Музыка и слова В.Горбатов)"
    PERFORMER "Александр Кальянов"
    INDEX 01 10:38:35
  TRACK 05 AUDIO
    TITLE "Лови привет (А.Выпов - В.Маликов)"
    PERFORMER "Александр Кальянов"
    INDEX 01 14:22:57
  TRACK 06 AUDIO
    TITLE "Путана (Музыка и слова Олег Газманов)"
    PERFORMER "Александр Кальянов"
    INDEX 01 17:19:57
  TRACK 07 AUDIO
    TITLE "Золотая осень (И.Зубков - Т.Лебединская)"
    PERFORMER "Александр Кальянов"
    INDEX 01 21:27:29
  TRACK 08 AUDIO
    TITLE "Два по двести, Зоечка (Музыка и слова А.Щеглов)"
    PERFORMER "Александр Кальянов"
    INDEX 01 24:09:68
  TRACK 09 AUDIO
    TITLE "Просто знакомые (Музыка и слова А.Домничев)"
    PERFORMER "Александр Кальянов"
    INDEX 01 27:25:52
  TRACK 10 AUDIO
    TITLE "Пляжи (Музыка и слова Игорь Николаев)"
    PERFORMER "Александр Кальянов"
    INDEX 01 30:53:39
  TRACK 11 AUDIO
    TITLE "Терема (Ю.Логинов - М.Танич)"
    PERFORMER "Александр Кальянов"
    INDEX 01 34:04:68
  TRACK 12 AUDIO
    TITLE "По 100 грамм (Музыка и слова А.Домничев)"
    PERFORMER "Александр Кальянов"
    INDEX 01 38:13:25
  TRACK 13 AUDIO
    TITLE "На трёхметровой кухне (А.Савченко - автор слов неизвестен)"
    PERFORMER "Александр Кальянов"
    INDEX 01 40:44:12
  TRACK 14 AUDIO
    TITLE "Таганка (И.Николаев - П.Жагун)"
    PERFORMER "Александр Кальянов"
    INDEX 01 44:23:08
  TRACK 15 AUDIO
    TITLE "Голосок (А.Морозов - А.Поперечный)"
    PERFORMER "Александр Кальянов"
    INDEX 01 47:36:53
  TRACK 16 AUDIO
    TITLE "Свежий запах лип (И.Николаев - Е.Евтушенко)"
    PERFORMER "Александр Кальянов"
    INDEX 01 50:29:14
  TRACK 17 AUDIO
    TITLE "Вагончик (В.Хисматуллин - С.Хисматуллин)"
    PERFORMER "Александр Кальянов"
    INDEX 01 55:32:68
  TRACK 18 AUDIO
    TITLE "Красивая женщина (Музыка и слова А.Домничев)"
    PERFORMER "Александр Кальянов"
    INDEX 01 58:50:00
  TRACK 19 AUDIO
    TITLE "Безбилетный пассажир (Ю.Логинов - Н.Олев)"
    PERFORMER "Александр Кальянов"
    INDEX 01 62:48:30
  TRACK 20 AUDIO
    TITLE "За всё приходится платить (Э.Супрунов - Я.Трусов)"
    PERFORMER "Александр Кальянов"
    INDEX 01 66:52:56

Отчёт auCDtect Task manager:

Код:

-----------------------

DON'T MODIFY THIS FILE

-----------------------

PERFORMER: auCDtect Task Manager, ver. 1.6.0 RC1 build 1.6.0.1
Copyright (c) 2008-2010 y-soft. All rights reserved
http://y-soft.org

ANALYZER: auCDtect: CD records authenticity detector, version 0.8.2
Copyright (c) 2004 Oleg Berngardt. All rights reserved.
Copyright (c) 2004 Alexander Djourik. All rights reserved.

FILE: Александр Кальянов - Золотые хиты.flac
  Size: 532687397 Hash: 4761C32B2924A9182860C12F042EC0F7 Accuracy: -m0
  Conclusion: CDDA 100%
  Signature: DD981AD3188D4E1DC1795378381E2010541AC558

Спектрограмма:



YouTube
Детали торрента:
Название:Александр Кальянов - Золотые хиты. GOLDEN HITS. Лучшие песни (2007) [FLAC|Lossless|image + .cue] <Chanson>
Дата добавления:20 Май 2016 09:37:58
Размер:520 MB
Раздают:2
Качают:0
Форум:Русский Шансон (Lossless)

All rights reserved © 2015-2018