TORRENTS45.XYZ

Скачать Sunrise - Absolute Clarity (2016) Japanese Edition [FLAC|Lossless|image + .cue] <Melodic Power Metal>


Sunrise - Absolute Clarity (2016) Japanese Edition
Год: 2016
Жанр: Melodic Power Metal
Издание: Spiritual Beast Co.- IUCP-16239
Продолжительность: 00:54:13

Кодек: FLAC
Битрейт: Lossless
Тип рипа: image + .cue+covers

Треклист:
01. Tower Of Fear (4:49)
02. Star Ocean (4:08)
03. Live In Peace (4:58)
04. Prayer For You (4:37)
05. Reality Of Dreams (3:39)
06. What You Have Done (4:19)
07. When Here Comes The Night (4:28)
08. The Angel (4:58)
09. Hope And Pray (3:49)
10. Thunder In The Distance (4:09)
11. Not Your Friend (Bonus Track) (6:08)
12. Give Me A Sign (Bonus Track) (4:11)

О музыке:

Украинская power metal группа Sunrise
Цитата:

Стоит отметить, что альбом музыкантов очень насыщенный, мелодичный и с качественным звучанием, как музыкальным, так и вокальным. Найти что-то для себя сможет даже самый искушенный слушатель. Уже после первого прослушивания альбома появляются любимые треки и хочется возвращаться к прослушиванию снова. Альбом оставляет приятное послевкусие и не возникает ощущения усталости. Наоборот, хочется снова окунуться в этот мелодичный мир, созданный музыкантами.

«Мы приложили все усилия для того, чтобы этот альбом продемонстрировал качественно новый музыкальный и исполнительский уровень SUNRISE. Мы постарались вложить в новые песни много эмоций и переживаний, все наши чувства. Надеемся, что прослушивание альбома оставит в душе слушателя некоторую магию, добавляющую свои краски в восприятие окружающего мира», – комментируют участники группы.

Отчёт EAC:

Код:

Exact Audio Copy V1.1 from 23. June 2015

EAC extraction logfile from 25. April 2016, 15:40

Sunrise / Absolute Clarity (Japan)

Used drive  : ATAPI   iHAS122   W   Adapter: 2  ID: 0

Read mode               : Secure
Utilize accurate stream : Yes
Defeat audio cache      : Yes
Make use of C2 pointers : No

Read offset correction                      : 48
Overread into Lead-In and Lead-Out          : No
Fill up missing offset samples with silence : Yes
Delete leading and trailing silent blocks   : No
Null samples used in CRC calculations       : Yes
Used interface                              : Installed external ASPI interface

Used output format              : User Defined Encoder
Selected bitrate                : 1024 kBit/s
Quality                         : High
Add ID3 tag                     : No
Command line compressor         : C:\Program Files\FLAC\flac.exe
Additional command line options : -V -8 -T "Date=%year%" -T "Genre=%genre%" -T"COMMENT=Ripped by  Ilijan" -8 -V %source%

TOC of the extracted CD

     Track |   Start  |  Length  | Start sector | End sector
    ---------------------------------------------------------
        1  |  0:00.00 |  4:49.00 |         0    |    21674
        2  |  4:49.00 |  4:08.33 |     21675    |    40307
        3  |  8:57.33 |  4:57.63 |     40308    |    62645
        4  | 13:55.21 |  4:36.42 |     62646    |    83387
        5  | 18:31.63 |  3:39.36 |     83388    |    99848
        6  | 22:11.24 |  4:19.03 |     99849    |   119276
        7  | 26:30.27 |  4:27.64 |    119277    |   139365
        8  | 30:58.16 |  4:58.26 |    139366    |   161741
        9  | 35:56.42 |  3:48.45 |    161742    |   178886
       10  | 39:45.12 |  4:09.34 |    178887    |   197595
       11  | 43:54.46 |  6:07.52 |    197596    |   225172
       12  | 50:02.23 |  4:11.04 |    225173    |   244001

Range status and errors

Selected range

     Filename D:\ilко\Sunrise - Absolute Clarity (Japan).wav

     Peak level 97.2 %
     Extraction speed 3.9 X
     Range quality 100.0 %
     Test CRC D22D25C6
     Copy CRC D22D25C6
     Copy OK

No errors occurred

AccurateRip summary

Track  1  not present in database
Track  2  not present in database
Track  3  not present in database
Track  4  not present in database
Track  5  not present in database
Track  6  not present in database
Track  7  not present in database
Track  8  not present in database
Track  9  not present in database
Track 10  not present in database
Track 11  not present in database
Track 12  not present in database

None of the tracks are present in the AccurateRip database

End of status report

---- CUETools DB Plugin V2.1.6

[CTDB TOCID: ufqsi0sRFMd83OdwNKdEUiRHP3A-] found
Submit result: ufqsi0sRFMd83OdwNKdEUiRHP3A- has been confirmed
Track | CTDB Status
  1   | (1/1) Accurately ripped
  2   | (1/1) Accurately ripped
  3   | (1/1) Accurately ripped
  4   | (1/1) Accurately ripped
  5   | (1/1) Accurately ripped
  6   | (1/1) Accurately ripped
  7   | (1/1) Accurately ripped
  8   | (1/1) Accurately ripped
  9   | (1/1) Accurately ripped
 10   | (1/1) Accurately ripped
 11   | (1/1) Accurately ripped
 12   | (1/1) Accurately ripped

==== Log checksum A344B256B91651ED0FA8B5BC5B7844DB903C0511D0A8507B3F264874891EA32E ====

Cue Sheet (.cue):

Код:

REM GENRE "Power Metal"
REM DATE 2016
REM DISCID 9D0CB50C
REM COMMENT "ExactAudioCopy v1.1"
PERFORMER "Sunrise"
TITLE "Absolute Clarity (Japan)"
FILE "Sunrise - Absolute Clarity (Japan).flac" WAVE
  TRACK 01 AUDIO
    TITLE "Tower Of Fear"
    PERFORMER "Sunrise"
    INDEX 01 00:00:00
  TRACK 02 AUDIO
    TITLE "Star Ocean"
    PERFORMER "Sunrise"
    INDEX 01 04:49:00
  TRACK 03 AUDIO
    TITLE "Live In Peace"
    PERFORMER "Sunrise"
    INDEX 01 08:57:33
  TRACK 04 AUDIO
    TITLE "Prayer For You"
    PERFORMER "Sunrise"
    INDEX 01 13:55:21
  TRACK 05 AUDIO
    TITLE "Reality Of Dreams"
    PERFORMER "Sunrise"
    INDEX 01 18:31:63
  TRACK 06 AUDIO
    TITLE "What You Have Done"
    PERFORMER "Sunrise"
    INDEX 01 22:11:24
  TRACK 07 AUDIO
    TITLE "When Here Comes The Night"
    PERFORMER "Sunrise"
    INDEX 01 26:30:27
  TRACK 08 AUDIO
    TITLE "The Angel"
    PERFORMER "Sunrise"
    INDEX 01 30:58:16
  TRACK 09 AUDIO
    TITLE "Hope And Pray"
    PERFORMER "Sunrise"
    INDEX 01 35:56:42
  TRACK 10 AUDIO
    TITLE "Thunder In The Distance"
    PERFORMER "Sunrise"
    INDEX 01 39:45:12
  TRACK 11 AUDIO
    TITLE "Not Your Friend (Bonus Track)"
    PERFORMER "Sunrise"
    INDEX 00 43:52:46
    INDEX 01 43:54:46
  TRACK 12 AUDIO
    TITLE "Give Me A Sign (Bonus Track)"
    PERFORMER "Sunrise"
    INDEX 01 50:02:23

Отчёт auCDtect Task manager:

Код:

-----------------------

DON'T MODIFY THIS FILE

-----------------------

PERFORMER: auCDtect Task Manager, ver. 1.6.0 RC1 build 1.6.0.1
Copyright (c) 2008-2010 y-soft. All rights reserved
http://y-soft.org

ANALYZER: auCDtect: CD records authenticity detector, version 0.8.2
Copyright (c) 2004 Oleg Berngardt. All rights reserved.
Copyright (c) 2004 Alexander Djourik. All rights reserved.

FILE: Sunrise - Absolute Clarity (Japan).flac
  Size: 423632804 Hash: E2C2B9E1BB8C565078193FB0ADCAD44D Accuracy: -m0
  Conclusion: CDDA 100%
  Signature: 3A75D0741048773F84F2BFC100867F179E40397D

Детали торрента:
Название:Sunrise - Absolute Clarity (2016) Japanese Edition [FLAC|Lossless|image + .cue] <Melodic Power Metal>
Дата добавления:01 Май 2016 11:01:53
Размер:487 MB
Раздают:
Качают:0
Форум:Metal (Lossless)

All rights reserved © 2015-2019