TORRENTS45.XYZ

Скачать Футбол. Чемпионат Англии 2015-2016. 35 тур. Манчестер Сити - Сток Сити (23.04.2016) HDTVRip [H.264/720p-LQ]


Футбол. Чемпионат Англии 2015-2016. 35 тур. Манчестер Сити - Сток Сити (23.04.2016) HDTVRip [H.264/720p-LQ]
Телекомпания: Футбол 1 HD
Жанр: Спорт
Комментатор: Роман Трушечкин

Описание:
23 апреля 2016, суббота. 14:45 МСК
35-й тур

Стадион: Этихад - Сити оф Манчестер (Манчестер, Англия) , вместимость: 55097
Главный судья: Роберт Мэдли (Йоркшир, Англия)
Ассистент: Скотт Леджер (Англия)
Ассистент: Даррен Кэнн (Норидж, Норфолк, Англия)
Резервный: Майк Дин (Хесволл, Уиррал, Англия)

Продолжительность: 01:44:17
Качество видео: HDTVRip
Формат видео: MKV
Автор рипа: CSKAfan

Видео: AVC/H.264, 1280x720, ~4000 Kbps, 50 fps
Аудио: AC3, 2 ch, 128 Kbps

Mediainfo:

Код:

Общее
Уникальный идентификатор                 : 237588976451819719878605576855190331146 (0xB2BDF8F08C8F1A872C5F0D3821295F0A)
Полное имя                               : G:\СПОРТ\ФУТБОЛ\АНГЛИЯ\Футбол. Чемпионат Англии 2015-2016. 35 тур. Манчестер Сити – Сток Сити HDTVRip 720p.mkv
Формат                                   : Matroska
Версия формата                           : Version 2
Размер файла                             : 3,09 Гбайт
Продолжительность                        : 1 ч. 44 м.
Общий поток                              : 4243 Кбит/сек
Программа кодирования                    : Lavf54.63.104
Библиотека кодирования                   : Lavf54.63.104 / Lavf54.63.104

Видео
Идентификатор                            : 1
Формат                                   : AVC
Формат/Информация                        : Advanced Video Codec
Профиль формата                          : High@L4.1
Параметр CABAC формата                   : Да
Параметр ReFrames формата                : 4 кадра
Идентификатор кодека                     : V_MPEG4/ISO/AVC
Продолжительность                        : 1 ч. 44 м.
Битрейт                                  : 4030 Кбит/сек
Ширина                                   : 1280 пикселей
Высота                                   : 720 пикселей
Соотношение сторон                       : 16:9
Режим частоты кадров                     : Постоянный
Частота кадров                           : 50,000 кадров/сек
Цветовое пространство                    : YUV
Субдискретизация насыщенности            : 4:2:0
Битовая глубина                          : 8 бит
Тип развёртки                            : Прогрессивная
Бит/(Пиксели*Кадры)                      : 0.087
Размер потока                            : 2,94 Гбайт (95%)
Default                                  : Нет
Forced                                   : Нет

Аудио
Идентификатор                            : 2
Формат                                   : AC-3
Формат/Информация                        : Audio Coding 3
Расширение режима                        : CM (complete main)
Параметр Endianness формата              : Big
Идентификатор кодека                     : A_AC3
Продолжительность                        : 1 ч. 44 м.
Вид битрейта                             : Постоянный
Битрейт                                  : 128 Кбит/сек
Каналы                                   : 2 канала
Расположение каналов                     : Front: L R
Частота                                  : 48,0 КГц
Частота кадров                           : 31,250 кадров/сек (1536 spf)
Метод сжатия                             : С потерями
Размер потока                            : 95,5 Мбайт (3%)
Язык                                     : Russian
Default                                  : Да
Forced                                   : Нет
Скриншоты:


Детали торрента:
Название:Футбол. Чемпионат Англии 2015-2016. 35 тур. Манчестер Сити - Сток Сити (23.04.2016) HDTVRip [H.264/720p-LQ]
Дата добавления:23 Апр 2016 18:29:01
Размер:3,09 GB
Раздают:
Качают:0
Форум:Архив Документалистики и TV

All rights reserved © 2015-2018