TORRENTS45.XYZ

Скачать Следствие вели... с Леонидом Каневским. "Маленький - наследник" (16.04.2016). HDTV [H.264/1080i]


Следствие вели... с Леонидом Каневским. "Маленький - наследник" (16.04.2016). HDTV
Телекомпания: НТВ
Жанр: Документальный, расследование

Описание:
Эти уголовные дела гремели на весь Советский Союз. По ним были написаны романы и сняты художественные фильмы. Их фигуранты - миллионеры эпохи социализма, хитроумные воры, профессиональные грабители и валютчики. Они бросили вызов советскому обществу. Вызов приняли лучшие сыщики страны. В их распоряжении не было компьютеров, сотовой связи и бойцов ОМОНа. Но это не мешало вершиться правосудию. Главная цель сериала - не просто рассказать о преступлениях и злоумышленниках советского времени, а показать ушедшую эпоху так, чтобы молодые зрители смогли прочувствовать дух ушедшего времени, а зрители постарше - ностальгию по прошлому.

В этом выпуске: Москва, 1983 год. Лифт-убийца и автомобиль без тормозов — неужели над обычной советской семьей нависло страшное проклятье? Как удалось выжить маленькому мальчику?


Режиссер: Игорь Ромащенко, Борис Фёдоров



Релиз от: Nikolspup
Качество видео: HDTV
Продолжительность: 00:40:56

Видео: AVC, 1920x1080 (16:9), 25.000 fps, 7 865 Kbps (0.152 bit/pixel)
Аудио: MP2, 48.0 KHz, 2 ch, 192 Kbps, CBR (Russian)

MediaInfo

Код:

Общее
Идентификатор                            : 1 (0x1)
Полное имя                               : F:\видео\фильмы\Следствие вели... с Леонидом Каневским\Sledstvie.veli.(2016.04.16).2016.HDTV.(1080i).ts
Формат                                   : MPEG-TS
Размер файла                             : 2,38 Гбайт
Продолжительность                        : 40 м.
Режим общего битрейта                    : Переменный
Общий поток                              : 8478 Кбит/сек

Видео
Идентификатор                            : 67 (0x43)
Идентификатор меню                       : 1 (0x1)
Формат                                   : AVC
Формат/Информация                        : Advanced Video Codec
Профиль формата                          : Main@L4
Параметр CABAC формата                   : Да
Параметр ReFrames формата                : 2 кадра
Идентификатор кодека                     : 27
Продолжительность                        : 40 м.
Битрейт                                  : 7865 Кбит/сек
Ширина                                   : 1920 пикселей
Высота                                   : 1080 пикселей
Соотношение сторон                       : 16:9
Частота кадров                           : 25,000 кадров/сек
Цветовое пространство                    : YUV
Субдискретизация насыщенности            : 4:2:0
Битовая глубина                          : 8 бит
Тип развёртки                            : MBAFF
Метод сохранения типа развёртки          : Чередующиеся поля
Порядок развёртки                        : Верхнее поле первое
Бит/(Пиксели*Кадры)                      : 0.152
Размер потока                            : 2,21 Гбайт (93%)
Цветовой диапазон                        : Limited
Основные цвета                           : BT.709
Характеристики трансфера                 : BT.709
Коэффициенты матрицы                     : BT.709

Аудио
Идентификатор                            : 68 (0x44)
Идентификатор меню                       : 1 (0x1)
Формат                                   : MPEG Audio
Версия формата                           : Version 1
Профиль формата                          : Layer 2
Идентификатор кодека                     : 3
Продолжительность                        : 40 м.
Вид битрейта                             : Постоянный
Битрейт                                  : 192 Кбит/сек
Каналы                                   : 2 канала
Частота                                  : 48,0 КГц
Метод сжатия                             : С потерями
Задержка видео                           : -80 мс.
Размер потока                            : 55,2 Мбайт (2%)
Язык                                     : Russian

Скриншоты:



Следствие вели... с Леонидом Каневским на NoNaMe Club

Смотреть Online

Детали торрента:
Название:Следствие вели... с Леонидом Каневским. "Маленький - наследник" (16.04.2016). HDTV [H.264/1080i]
Дата добавления:22 Апр 2016 20:25:42
Размер:2,38 GB
Раздают:
Качают:0
Форум:Тележурналистика

All rights reserved © 2015-2019